Thelma 2017 1080p BluRay x264 AAC LLG

Posted by LifeLongg •1255 on February 14, 2018 in Movies » Drama , verified torrent

Size: 1.1 GB , Seeds: 0 , Peers: 1 ( Updated August 2, 2018 - Refresh )

* Download via Magnet Link , * To download files you need a Bittorrent Client , * How to download torrents from Bit Torrent Scene?

Scrape History ( seeds + peers )

Internal Files

Thelma.2017.1080p.BluRay.x264.AAC.LLG
Sample.mp4   25.9 MB
Thelma.2017.1080p.BluRay.x264.AAC.LLG.mp4   1.07 GB

Hash Code

83dc30f33f819da1f1a93b00e384d22b929a04ba

Description

******************************Thumbnail:**********************

SCREENSHOT

******************************Screenshots:********************

Screenshot 1

Screenshot 2

Screenshot 3

Screenshot 4

Screenshot 5

Screenshot 6

Screenshot 7

Screenshot 8

Screenshot 9

Screenshot 0

Complete name : Thelma.2017.1080p.BluRay.x264.AAC.LLG.mp4
Format : MPEG-4
Format profile : Base Media
Codec ID : isom (isom/iso2/avc1/mp41)
File size : 1.07 GiB
Duration : 1 h 56 min
Overall bit rate : 1 326 kb/s
Writing application : Lavf57.56.101

Video
ID : 1
Format : AVC
Format/Info : Advanced Video Codec
Format profile : High@L4
Format settings : CABAC / 4 Ref Frames
Format settings, CABAC : Yes
Format settings, RefFrames : 4 frames
Codec ID : avc1
Codec ID/Info : Advanced Video Coding
Duration : 1 h 56 min
Bit rate : 1 200 kb/s
Width : 1 920 pixels
Height : 800 pixels
Display aspect ratio : 2.40:1
Frame rate mode : Constant
Frame rate : 23.976 (23976/1000) FPS
Color space : YUV
Chroma subsampling : 4:2:0
Bit depth : 8 bits
Scan type : Progressive
Bits/(Pixel*Frame) : 0.033
Stream size : 988 MiB (90%)

Audio
ID : 2
Format : AAC
Format/Info : Advanced Audio Codec
Format profile : LC
Codec ID : mp4a-40-2
Duration : 1 h 56 min
Bit rate mode : Constant
Bit rate : 129 kb/s
Channel(s) : 2 channels
Channel positions : Front: L R
Sampling rate : 48.0 kHz
Frame rate : 46.875 FPS (1024 SPF)
Compression mode : Lossy
Stream size : 107 MiB (10%)
Default : Yes
Alternate group : 1

Trackers

Refresh Leechers : Updated August 2, 2018

1. udp://tracker.openbittorrent.com:80/announce

2. udp://tracker.opentrackr.org:1337/announce

Comments

You must log in to add a comment.

Embed Code

Sharing Widget

Top Movies ( auto generated report )

FILENAME SIZE SEEDS PEERS ADDED UPD
[i] Adrift (2018) [WEBRip] [720p] [YTS AM] 820.74 MB 3274 1140 1 day 18 hours
[i] Upgrade (2018) [BluRay] [720p] [YTS AM] 858.85 MB 2799 882 1 day 18 hours
[i] Upgrade (2018) [BluRay] [1080p] [YTS AM] 1.61 GB 2366 658 1 day 18 hours
[i] Adrift (2018) [WEBRip] [1080p] [YTS AM] 1.54 GB 2181 668 1 day 18 hours
[i] The Scythian (2018) [BluRay] [720p] [YTS AM] 919.08 MB 1457 653 1 day 18 hours
[i] What Still Remains (2018) [WEBRip] [720p] [YTS AM] 790.12 MB 1484 346 1 day 18 hours
[i] Time Trap (2017) [BluRay] [720p] [YTS AM] 758.78 MB 1187 421 1 day 18 hours
[i] To All the Boys I've Loved Before (2018) [WEBRip] [720p] [YTS AM] 851.13 MB 2572 2405 1 day 17 hours
[i] Down a Dark Hall (2018) [WEBRip] [720p] [YTS AM] 816.24 MB 1071 613 1 day 18 hours
[i] What Still Remains (2018) [WEBRip] [1080p] [YTS AM] 1.47 GB 1055 225 1 day 18 hours