Your IP Address is . Location is Your ISP and Government can track your torrent activity! Hide your IP with a VPN!

The Beguiled - L'inganno (2017) Nicole Kidman.H264.italian.english.Ac3-5.1.sub.ita.eng.MIRCrew

DOWNLOAD TORRENT DOWNLOAD DOWNLOAD ANONYMOUS

Posted by robbyrs3 •431 on January 10, 2018 in Movies » Drama , verified torrent

Size: 1.4 GB , Seeds: 186 , Peers: 22 ( Updated January 16, 2018 - Refresh )

* Download via Magnet Link , * To download files you need a Bittorrent Client , * How to download torrents from Bit Torrent Scene?

Scrape History ( seeds + peers )

Internal Files

L'Inganno - The Beguiled (2017).H264.ita.eng.sub.ita.eng-MIRCrew
L'Inganno - The Beguiled (2017).H264.ita.eng.sub.ita.eng-MIRCrew.eng.srt   90.16 KB
L'Inganno - The Beguiled (2017).H264.ita.eng.sub.ita.eng-MIRCrew.ita.srt   72.31 KB
L'Inganno - The Beguiled (2017).H264.ita.eng.sub.ita.eng-MIRCrew.mkv   1.4 GB
L'Inganno - The Beguiled (2017).H264.ita.eng.sub.ita.eng-MIRCrew.srt   1.35 KB

Hash Code

8eef04cbe58a1a64a3d4620959a6b62e50e271bd

Description

The Beguiled - L'inganno (2017) Nicole Kidman.H264.italian.english.Ac3-5.1.sub.ita.eng.MIRCrew

SCREENSHOT
NO FOUND ONLY ORIGINAL RELEASE

SCREENSHOT

My release is always in double track audio italian and Original audio
for select it use VLC or dvd player home
not use wmp

L'Inganno - The Beguiled (2017)

SCREENSHOT

SCREENSHOT

SCREENSHOT

Titolo originale The Beguiled
Lingua originale inglese
Paese di produzione Stati Uniti d'America
Anno 2017
Durata 93 min
Rapporto 1,66:1
Genere drammatico
Regia Sofia Coppola
Soggetto Thomas P. Cullinan (romanzo)
Sceneggiatura Sofia Coppola
Produttore Youree Henley, Sofia Coppola
Produttore esecutivo Fred Roos, Anne Ross, Robert Ortiz
Casa di produzione American Zoetrope
Distribuzione (Italia) Universal Pictures
Fotografia Philippe Le Sourd
Montaggio Sarah Flack
Scenografia Anne Ross
Costumi Stacey Battat
Trucco Mia Goff, Natalie Christine Johnson

SCREENSHOT

Colin Farrell: John McBurney
Nicole Kidman: Martha Farnsworth
Kirsten Dunst: Edwina Morrow
Elle Fanning: Alicia
Angourie Rice: Jane
Oona Laurence: Amy
Emma Howard: Emily
Addison Riecke: Marie

SCREENSHOT

Virginia, 1864. Martha Farnswort gestisce un collegio femminile il quale, a causa della Guerra di Secessione, è rimasto quasi del tutto abbandonato e isolato. Le uniche persone a viverci sono la stessa direttrice, la maestra Edwina Morrow e cinque studentesse, che si sono adattate a vivere da sole e nascoste per paura di subire scorrerie e violenze da parte dei soldati.

SCREENSHOT

Three years into the senseless American Civil War, in 1864, the dilapidated mansion of Miss Martha Farnsworth's Seminary for Young Ladies is still running, occupied by the matriarch, a teacher and five students in Spanish moss-draped Virginia.

SCREENSHOT

SCREENSHOT
SCREENSHOT
SCREENSHOT
SCREENSHOT

SCREENSHOT

[spoiler]
General
Unique ID : 42860615030984737796691661766723082278 (0x203EA779259175ECFE1ED87683CF9826)
Complete name : L'Inganno - The Beguiled (2017).H264.ita.eng.sub.ita.eng-MIRCrewL'Inganno - The Beguiled (2017).H264.ita.eng.sub.ita.eng-MIRCrew.mkv
Format : Matroska
Format version : Version 2
File size : 1.40 GiB
Duration : 1h 33mn
Overall bit rate : 2 150 Kbps
Movie name : MIRCrew
Encoded date : UTC 2018-01-09 08:44:18
Writing application : Lavf54.63.100
Writing library : Lavf54.63.100
COPYRIGHT : robbyrs

Video
ID : 1
Format : AVC
Format/Info : Advanced Video Codec
Format profile : Main@L4.1
Format settings, CABAC : Yes
Format settings, ReFrames : 2 frames
Codec ID : V_MPEG4/ISO/AVC
Duration : 1h 33mn
Bit rate : 1 211 Kbps
Nominal bit rate : 1 300 Kbps
Width : 720 pixels
Height : 432 pixels
Display aspect ratio : 1.660
Original display aspect ratio : 1.659
Frame rate mode : Variable
Frame rate : 23.976 fps
Color space : YUV
Chroma subsampling : 4:2:0
Bit depth : 8 bits
Scan type : Progressive
Bits/(Pixel*Frame) : 0.162
Stream size : 810 MiB (56%)
Writing library : x264 core 130 r2273
Encoding settings : cabac=1 / ref=2 / deblock=1:0:0 / analyse=0x1:0x131 / me=hex / subme=7 / psy=1 / psy_rd=1.00:0.00 / mixed_ref=0 / me_range=16 / chroma_me=1 / trellis=1 / 8x8dct=0 / cqm=0 / deadzone=21,11 / fast_pskip=1 / chroma_qp_offset=-2 / threads=3 / lookahead_threads=1 / sliced_threads=0 / nr=0 / decimate=1 / interlaced=0 / bluray_compat=0 / constrained_intra=0 / bframes=3 / b_pyramid=0 / b_adapt=1 / b_bias=0 / direct=3 / weightb=1 / open_gop=0 / weightp=2 / keyint=230 / keyint_min=23 / scenecut=40 / intra_refresh=0 / rc_lookahead=40 / rc=abr / mbtree=1 / bitrate=1300 / ratetol=1.0 / qcomp=0.60 / qpmin=10 / qpmax=69 / qpstep=4 / vbv_maxrate=24000 / vbv_bufsize=24000 / nal_hrd=none / ip_ratio=1.40 / aq=1:1.00
Language : Italian
Default : Yes
Forced : No
DURATION : 01:33:32.482000000
NUMBER_OF_FRAMES : 134565
NUMBER_OF_BYTES : 6901414820
_STATISTICS_WRITING_APP : mkvmerge v9.6.0 ('Slave To Your Mind') 64bit
_STATISTICS_WRITING_DATE_UTC : 2018-01-06 09:28:50
_STATISTICS_TAGS : BPS DURATION NUMBER_OF_FRAMES NUMBER_OF_BYTES

Audio #1
ID : 2
Format : AC-3
Format/Info : Audio Coding 3
Mode extension : CM (complete main)
Codec ID : A_AC3
Duration : 1h 33mn
Bit rate mode : Constant
Bit rate : 448 Kbps
Channel(s) : 6 channels
Channel positions : Front: L C R, Side: L R, LFE
Sampling rate : 48.0 KHz
Bit depth : 16 bits
Compression mode : Lossy
Delay relative to video : 1mn 5s
Stream size : 300 MiB (21%)
Title : Ita. AC3 640 Kbps
Language : Italian
Default : No
Forced : No
DURATION : 01:33:32.608000000
NUMBER_OF_FRAMES : 175394
NUMBER_OF_BYTES : 449008640
_STATISTICS_WRITING_APP : mkvmerge v9.6.0 ('Slave To Your Mind') 64bit
_STATISTICS_WRITING_DATE_UTC : 2018-01-06 09:28:50
_STATISTICS_TAGS : BPS DURATION NUMBER_OF_FRAMES NUMBER_OF_BYTES

Audio #2
ID : 3
Format : AC-3
Format/Info : Audio Coding 3
Mode extension : CM (complete main)
Codec ID : A_AC3
Duration : 1h 33mn
Bit rate mode : Constant
Bit rate : 448 Kbps
Channel(s) : 6 channels
Channel positions : Front: L C R, Side: L R, LFE
Sampling rate : 48.0 KHz
Bit depth : 16 bits
Compression mode : Lossy
Delay relative to video : 1mn 5s
Stream size : 300 MiB (21%)
Title : Eng. DTS 1510 Kbps
Language : English
Default : No
Forced : No
DURATION : 01:33:32.608000000
NUMBER_OF_FRAMES : 526182
NUMBER_OF_BYTES : 1058678272
_STATISTICS_WRITING_APP : mkvmerge v9.6.0 ('Slave To Your Mind') 64bit
_STATISTICS_WRITING_DATE_UTC : 2018-01-06 09:28:50
_STATISTICS_TAGS : BPS DURATION NUMBER_OF_FRAMES NUMBER_OF_BYTES

Menu
00:00:00.000 : :(01)00:00:00:000
00:06:13.664 : :(02)00:06:13:664
00:09:47.461 : :(03)00:09:47:461
00:14:00.005 : :(04)00:14:00:005
00:18:26.271 : :(05)00:18:26:271
00:25:16.223 : :(06)00:25:16:223
00:31:24.674 : :(07)00:31:24:674
00:34:44.749 : :(08)00:34:44:749
00:42:09.485 : :(09)00:42:09:485
00:44:44.973 : :(10)00:44:44:973
00:49:02.189 : :(11)00:49:02:189
00:55:11.391 : :(12)00:55:11:391
01:01:14.796 : :(13)01:01:14:796
01:05:00.980 : :(14)01:05:00:980
01:11:28.867 : :(15)01:11:28:867
01:13:54.513 : :(16)01:13:54:513
01:16:50.689 : :(17)01:16:50:689
01:21:57.495 : :(18)01:21:57:495
01:26:30.310 : :(19)01:26:30:310
01:29:46.756 : :(20)01:29:46:756
01:33:32.356 : :(21)01:33:32:356



[/spoiler]

Trackers

Refresh Leechers : Updated January 16, 2018

1. udp://tracker.coppersurfer.tk:6969/announce

2. udp://tracker.opentrackr.org:1337/announce

3. udp://tracker.pirateparty.gr:6969/announce

4. udp://tracker.zer0day.to:1337/announce

5. udp://p4p.arenabg.com:1337/announce

6. udp://p4p.arenabg.ch:1337/announce

7. udp://eddie4.nl:6969/announce

8. udp://tracker.leechers-paradise.org:6969/announce

9. udp://9.rarbg.me:2740/announce

10. udp://9.rarbg.to:2740/announce

11. udp://9.rarbg.com:2710/announce

12. http://bigfoot1942.sektori.org:6969/announce

13. udp://tracker.internetwarriors.net:1337/announce

14. udp://oscar.reyesleon.xyz:6969/announce

15. udp://tracker.cyberia.is:6969/announce

Comments

You must log in to add a comment.

Embed Code

Sharing Widget

Top Movies ( auto generated report )

FILENAME SIZE SEEDS PEERS ADDED UPD
[i] Geostorm (2017) [1080p] [YTS AG] 1.67 GB 5515 2716 3 days 1 day
[i] Geostorm (2017) [720p] [YTS AG] 812.63 MB 5216 4259 3 days 21 hours
[i] Jigsaw (2017) [720p] [YTS AG] 675.39 MB 3922 2227 3 days 2 days
[i] Jigsaw (2017) [1080p] [YTS AG] 1.4 GB 2479 970 3 days 1 day
[i] Mollys Game 2017 DVDScr XVID AC3 HQ Hive CM8 1.79 GB 2207 1893 3 days 2 days
[i] The Man from Earth Holocene (2017) [720p] [YTS AG] 726.46 MB 2189 1099 2 days 1 day
[i] Last Flag Flying (2017) [720p] [YTS AG] 903.74 MB 1947 1219 2 days 1 day
[i] The Man from Earth Holocene (2017) [1080p] [YTS AG] 1.51 GB 1803 773 2 days 1 day
[i] Last Flag Flying (2017) [1080p] [YTS AG] 1.89 GB 1802 781 2 days 1 day
[i] The Killing of a Sacred Deer (2017) [720p] [YTS AG] 893.13 MB 1685 944 2 days 1 day