Your IP Address is . Location is Your ISP and Government can track your torrent activity! Hide your IP with a VPN!

Shawn White's Gold Metal Run at Pyeongchang 2018.mkv

DOWNLOAD TORRENT DOWNLOAD DOWNLOAD ANONYMOUS

Posted on February 14, 2018 in Series » Misc

Size: 46.21 MB , Seeds: 5 , Peers: 1 ( Updated February 20, 2018 - Refresh )

* Download via Magnet Link , * To download files you need a Bittorrent Client , * How to download torrents from Bit Torrent Scene?

Scrape History ( seeds + peers )

Internal Files

Shawn White's Gold Metal Run at Pyeongchang 2018.mkv
Shawn White's Gold Metal Run at Pyeongchang 2018.mkv   46.18 MB

Hash Code

e2ca30b4ebe67c93fce90135761493f1adb3ae09

Description

Shawn White's Gold Metal Run at Pyeongchang 2018

Lays down a 97.75 to take #1 in the men's halfpipe.


SCREENSHOT

General

Complete name                            : Shawn White's Gold Metal Run at Pyeongchang 2018.mkv

Format                                   : Matroska

Format version                           : Version 2

File size                                : 46.2 MiB

Duration                                 : 1 min 42 s

Overall bit rate                         : 3 777 kb/s

Encoded date                             : UTC 2018-02-14 03:26:44

Writing application                      : mkvmerge v15.0.0 ('Duel with the Devil') 64-bit

Writing library                          : libebml v1.3.5 + libmatroska v1.4.5


Video

ID                                       : 1

Format                                   : AVC

Format/Info                              : Advanced Video Codec

Format profile                           : [email protected]
Format settings, CABAC                   : Yes

Format settings, RefFrames               : 5 frames

Codec ID                                 : V_MPEG4/ISO/AVC

Duration                                 : 1 min 42 s

Bit rate                                 : 3 390 kb/s

Width                                    : 1 280 pixels

Height                                   : 720 pixels

Display aspect ratio                     : 16:9

Frame rate mode                          : Constant

Frame rate                               : 59.940 (60000/1001) FPS

Color space                              : YUV

Chroma subsampling                       : 4:2:0

Bit depth                                : 8 bits

Scan type                                : Progressive

Bits/(Pixel*Frame)                       : 0.061

Stream size                              : 41.4 MiB (90%)

Default                                  : Yes

Forced                                   : No


Audio

ID                                       : 2

Format                                   : AC-3

Format/Info                              : Audio Coding 3

Format settings, Endianness              : Big

Codec ID                                 : A_AC3

Duration                                 : 1 min 42 s

Bit rate mode                            : Constant

Bit rate                                 : 384 kb/s

Channel(s)                               : 6 channels

Channel positions                        : Front: L C R, Side: L R, LFE

Sampling rate                            : 48.0 kHz

Frame rate                               : 31.250 FPS (1536 SPF)

Bit depth                                : 16 bits

Compression mode                         : Lossy

Stream size                              : 4.69 MiB (10%)

Language                                 : new

Service kind                             : Complete Main

Default                                  : Yes

Forced                                   : No

Torrent location

https://www.1337x.to/torrent/2799251/Shawn-White-s-Gold-Metal-Run-at-Pyeongchang-2018-mkv/

Trackers

Refresh Leechers : Updated February 20, 2018

1. http://bigfoot1942.sektori.org:6969/announce

2. http://tracker2.wasabii.com.tw:6969/announce

3. http://tracker.opentrackr.org/announce

4. http://announce.torrentsmd.com:6969/announce

5. http://tracker.trackerfix.com/announce

6. http://tracker.opentrackr.org/announce

7. udp://explodie.org:6969/announce

8. udp://mgtracker.org:6969/announce

9. udp://asnet.pw:2710/announce

10. udp://tracker.mgtracker.org:2710/announce

11. udp://tracker4.piratux.com:6969/announce

12. udp://tracker.trackerfix.com:80/announce

13. udp://tracker.pomf.se:80/announce

14. udp://tracker.x4w.co:6969/announce

15. udp://castradio.net:6969/announce

16. udp://ipv4.tracker.harry.lu:80/announce

17. udp://tracker.mg64.net:6881/announce

18. udp://tracker.sktorrent.net:6969/announce

19. udp://tracker.blackunicorn.xyz:6969/announce

20. udp://tracker.internetwarriors.net:1337/announce

21. udp://public.popcorn-tracker.org:6969/announce

22. udp://glotorrents.pw:6969/announce

23. udp://tracker.vanitycore.co:6969/announce

24. udp://tracker.trackerfix.com:80/announce

25. udp://p4p.arenabg.ch:1337/announce

26. udp://9.rarbg.me:2710/announce

27. udp://tracker.zer0day.to:1337/announce

28. udp://tracker.opentrackr.org:1337/announce

29. udp://tracker.pirateparty.gr:6969/announce

30. udp://9.rarbg.to:2710/announce

31. udp://eddie4.nl:6969/announce

32. udp://tracker.coppersurfer.tk:6969/announce

33. udp://tracker.leechers-paradise.org:6969/announce

34. udp://inferno.demonoid.pw:3391/announce

35. udp://eddie4.nl:6969/announce

36. udp://tracker.zer0day.to:1337/announce

37. udp://tracker.leechers-paradise.org:6969/announce

38. udp://tracker.ilibr.org:6969/announce

39. udp://inferno.demonoid.pw:3393/announce

40. http://tracker.opentrackr.org:1337/announce

41. udp://9.rarbg.me:2710/announce

42. udp://tracker.trackerfix.com:80/announce

43. udp://tracker.coppersurfer.tk:6969/announce

Comments

You must log in to add a comment.

Embed Code

Sharing Widget

Top Series ( auto generated report )

FILENAME SIZE SEEDS PEERS ADDED UPD
[i] RuPauls.Drag.Race.All.Stars.S03E05.WEBRip.360p.x264-WOWRip 185.07 MB 270 25 1 day 8 hours
[i] The.Tick.2016.S01.Part.2.720p.AMZN.WEB-DL.DD+5.1.H.264-AJP69[ett 2.82 GB 815 389 1 day 2 hours
[i] Monster S01E01 FRENCH HDTV 450.62 MB 110 2 1 day 3 hours
[i] Gold.Rush.S08E18.CONVERT.WEB.x264-TBS[N1C] 355.2 MB 110 31 22 hours 20 hours
[i] Celebrity.Big.Brother.US.S01E11.HDTV.x264-F43[ettv] 558.97 MB 295 39 23 hours 1 min
[i] 60.Days.In.S04E09.Nachos.Strippers.and.Whippit.WEB.h264-CAFFEiNE[ettv] 595.2 MB 114 23 1 day 5 hours
[i] Celebrity.Big.Brother.US.S01E11.720p.HDTV.x264-BAJSKORV[ettv] 1.77 GB 88 34 22 hours 20 hours
[i] How.Its.Made.S14E11.WEB.x264-CAFFEiNE 286.54 MB 63 6 1 day 3 hours
[i] Seven.Seconds.S01E06.720p.WEBRip.x264-SKGTV[ettv] 996 MB 163 71 1 day 11 hours
[i] Nashville.2012.S06E08.XviD-AFG 353.27 MB 54 6 1 day 15 hours