Poseidon (2006) 1080p Bluray x264 {Dual Audio} [Hindi Org DD 2.0 English DD 5.1] By~Hammer@Hon3yHD

Posted on August 10, 2018 in Movies » Misc , verified torrent

Size: 3.8 GB , Seeds: 1 , Peers: 8 ( Updated August 10, 2018 - Refresh )

* Download via Magnet Link , * To download files you need a Bittorrent Client , * How to download torrents from Bit Torrent Scene?

Scrape History ( seeds + peers )

Internal Files

Poseidon (2006) 1080p Bluray x264 {Dual Audio} [Hindi Org DD 2.0 English DD 5.1] By~Hammer@Hon3yHD
Poseidon   2006) 1080p Bluray x264 {Dual Audio} [Hindi Org DD 2.0 English DD 5.1] [email protected] (3.8 GB

Torrent Seed By www.cyber-planet.in.txt   0.1 KB

Hon3yHD.net.txt   0.1 KB

Hash Code

38ba5332a5437e7ec317c535901c5e720c229af9

Description



SCREENSHOT

SCREENSHOT


Format : Matroska

Format version : Version 4 / Version 2

File size : 3.85 GiB

Duration : 1 h 38 min

Overall bit rate : 5 607 kb/s

Movie name : Poseidon (2006) 1080p Bluray x264 {Dual Audio} [Hindi Org DD 2.0 English DD 5.1] [email protected]
Bit rate : 5 000 kb/s

Width : 1 920 pixels

Height : 800 pixels

Display aspect ratio : 2.40:1

Frame rate mode : Constant

Frame rate : 23.976 (24000/1001) FPS

Title : [email protected]
Language : English

Default : Yes

Forced : No


Audio #1

Format : AC-3

Format/Info : Audio Coding 3

Codec ID : A_AC3

Duration : 1 h 38 min

Bit rate mode : Constant

Bit rate : 224 kb/s

Channel(s) : 2 channels

Channel positions : Front: L R

Sampling rate : 48.0 kHz

Frame rate : 31.250 FPS (1536 SPF)

Bit depth : 16 bits

Compression mode : Lossy

Stream size : 157 MiB (4%)

Title : Hindi Org VCD DD 2.0 @224 kbps By~Hammer~

Language : Hindi

Default : Yes

Forced : Yes


Audio #2

Format : AC-3

Format/Info : Audio Coding 3

Codec ID : A_AC3

Duration : 1 h 38 min

Bit rate mode : Constant

Bit rate : 384 kb/s

Channel(s) : 6 channels

Channel positions : Front: L C R, Side: L R, LFE

Sampling rate : 48.0 kHz

Frame rate : 31.250 FPS (1536 SPF)

Bit depth : 16 bits

Compression mode : Lossy

Stream size : 270 MiB (7%)

Title : Eng Org DD 5.1 @384 kbps By~Hammer~

Language : English

Default : No

Forced : No

SCREENSHOT

SCREENSHOT
SCREENSHOT
SCREENSHOT
SCREENSHOT
SCREENSHOT

Enjoy & Keep Seeding

SCREENSHOT

Torrent location

https://www.1337x.to/torrent/3167364/Poseidon-2006-1080p-Bluray-x264-Dual-Audio-Hindi-Org-DD-2-0-English-DD-5-1-By-Hammer-Hon3yHD/

Trackers

Refresh Leechers : Updated August 10, 2018

1. udp://9.rarbg.com:2710/announce

2. udp://tracker.opentrackr.org:1337/announce

3. udp://tracker.pirateparty.gr:6969/announce

4. udp://tracker.leechers-paradise.org:6969/announce

5. udp://tracker.coppersurfer.tk:6969/announce

6. udp://tracker.zer0day.to:1337/announce

Comments

You must log in to add a comment.

Embed Code

Sharing Widget

Related torrents

FILENAME SIZE SEEDS PEERS ADDED UPD
[i] The.Poseidon.Adventure.1972.1080p.BluRay.x264.anoXmous 2.28 GB 16 2 3 years 1 year
[i] The.Poseidon.Adventure.1972.Bluray.1080p.DTS-HD-4.0.x264-Grym 15.85 GB 1 2 3 years 1 year
[i] Poseidon Rex 2013 1080p BluRay X264-iNVANDRAREN
posted by hotpena in Movies - Action
5.62 GB 0 0 3 years 1 year

Top Movies ( auto generated report )

FILENAME SIZE SEEDS PEERS ADDED UPD
[i] Adrift (2018) [WEBRip] [720p] [YTS AM] 820.74 MB 3274 1140 1 day 1 hour
[i] Upgrade (2018) [BluRay] [720p] [YTS AM] 858.85 MB 2799 882 1 day 56 min
[i] Upgrade (2018) [BluRay] [1080p] [YTS AM] 1.61 GB 2366 658 1 day 56 min
[i] Adrift (2018) [WEBRip] [1080p] [YTS AM] 1.54 GB 2181 668 1 day 1 hour
[i] The Scythian (2018) [BluRay] [720p] [YTS AM] 919.08 MB 1457 653 23 hours 46 min
[i] What Still Remains (2018) [WEBRip] [720p] [YTS AM] 790.12 MB 1484 346 1 day 1 hour
[i] Time Trap (2017) [BluRay] [720p] [YTS AM] 758.78 MB 1187 421 23 hours 41 min
[i] To All the Boys I've Loved Before (2018) [WEBRip] [720p] [YTS AM] 851.13 MB 2572 2405 23 hours 36 min
[i] Down a Dark Hall (2018) [WEBRip] [720p] [YTS AM] 816.24 MB 1071 613 1 day 56 min
[i] What Still Remains (2018) [WEBRip] [1080p] [YTS AM] 1.47 GB 1055 225 1 day 1 hour