Lupin III - Ruba il dizionario di Napoleone (1991) H264 ita jpn sub ita iCV-MIRCrew

DOWNLOAD TORRENT DOWNLOAD DOWNLOAD ANONYMOUS

Posted by robbyrs3 •376 on September 28, 2017 in Anime » Cartoons , verified torrent

Size: 1.11 GB , Seeds: 15 , Peers: 7 ( Updated October 12, 2017 - Refresh )

* Download via Magnet Link , * To download files you need a Bittorrent Client , * How to download torrents from Bit Torrent Scene?

Scrape History ( seeds + peers )

Internal Files

Lupin III - Ruba il dizionario di Napoleone (1991).H264.ita.jpn.sub.ita.iCV-MIRCrew
0scDel1.png   315.76 KB
Lupin III - Ruba il dizionario di Napoleone (1991).H264.ita.jpn.sub.ita.iCV-MIRCrew.mkv   1.11 GB
Lupin III - Ruba il dizionario di Napoleone (1991).H264.ita.jpn.sub.ita.iCV-MIRCrew.srt   90 Byte
Lupin III - Ruba il dizionario di Napoleone (1991).H264.ita.jpn.sub.ita.iCV-MIRCrew_track4_ita.idx   45.94 KB
Lupin III - Ruba il dizionario di Napoleone (1991).H264.ita.jpn.sub.ita.iCV-MIRCrew_track4_ita.sub   4.4 MB
www.icv-crew.org.txt   78 Byte

Hash Code

f4d614dd1ae8fc30748c5d8675338e1574dbee39

Description

Lupin III - Ruba il dizionario di Napoleone (1991).H264.3xita.Jpn.Sub.ita.iCV-MIRCrew

SCREENSHOT

SCREENSHOT
NO FOUND ONLY ORIGINAL RELEASE

SCREENSHOT

My release is always in double track audio italian and Original audio
for select it use VLC or dvd player home
not use wmp

Lupin III - Ruba il dizionario di Napoleone (1991)

SCREENSHOT

SCREENSHOT

SCREENSHOT

Autore Monkey Punch
Regia Osamu Dezaki
Musiche Yūji Ōno
Studio TMS Entertainment
Rete Nippon Television
1ª TV 9 agosto 1991
Aspect ratio 4:3
Durata 92'

SCREENSHOT

*****************

SCREENSHOT

Lupin vuole rubare un tesoro che è appartenuto a suo nonno e a suo padre, e il modo per trovarlo è scritto nel dizionario di Napoleone, messo in premio al vincitore di una gara automobilistica. Il problema è che lo stesso tesoro è ambito anche dai Paesi del G7, la cui economia è sull'orlo del tracollo a causa della Guerra del Golfo

SCREENSHOT

After Lupin steals an old fashion car from a museum in New York. He uses the car to compete in an old school car race in Europe. Reason why is he's after the grand prize, the Dictionary of Napoleon. The book contains the location of his family's prize possession.

SCREENSHOT

SCREENSHOT
SCREENSHOT
SCREENSHOT



SCREENSHOT


[spoiler]
General
Unique ID : 269406422621529443175763589139545974930 (0xCAADCA26BEC493A14C2EAB187E37E892)
Complete name : Lupin III - Ruba il dizionario di Napoleone (1991).H264.ita.jpn.sub.ita.iCV-MIRCrew.mkv
Format : Matroska
Format version : Version 2
File size : 1.11 GiB
Duration : 1h 30mn
Overall bit rate : 1 759 Kbps
Encoded date : UTC 2017-09-14T20:25:56Z
Writing application : HandBrake 0.10.5 2016021100
Writing library : Lavf55.12.0

Video
ID : 1
Format : AVC
Format/Info : Advanced Video Codec
Format profile : Main@L4.0
Format settings, CABAC : Yes
Format settings, ReFrames : 4 frames
Codec ID : V_MPEG4/ISO/AVC
Duration : 1h 30mn
Bit rate : 1 290 Kbps
Width : 688 pixels
Height : 528 pixels
Display aspect ratio : 4:3
Frame rate mode : Variable
Frame rate : 25.000 fps
Color space : YUV
Chroma subsampling : 4:2:0
Bit depth : 8 bits
Scan type : Progressive
Bits/(Pixel*Frame) : 0.142
Stream size : 822 MiB (73%)
Writing library : x264 core 142 r2479 dd79a61
Encoding settings : cabac=1 / ref=1 / deblock=1:1:1 / analyse=0x1:0x111 / me=hex / subme=2 / psy=1 / psy_rd=0.40:0.00 / mixed_ref=0 / me_range=16 / chroma_me=1 / trellis=0 / 8x8dct=0 / cqm=0 / deadzone=21,11 / fast_pskip=1 / chroma_qp_offset=0 / threads=12 / lookahead_threads=4 / sliced_threads=0 / nr=0 / decimate=1 / interlaced=0 / bluray_compat=0 / constrained_intra=0 / bframes=5 / b_pyramid=2 / b_adapt=1 / b_bias=0 / direct=1 / weightb=1 / open_gop=0 / weightp=1 / keyint=250 / keyint_min=25 / scenecut=40 / intra_refresh=0 / rc_lookahead=10 / rc=abr / mbtree=1 / bitrate=1290 / ratetol=1.0 / qcomp=0.60 / qpmin=0 / qpmax=69 / qpstep=4 / vbv_maxrate=20000 / vbv_bufsize=25000 / nal_hrd=none / filler=0 / ip_ratio=1.40 / aq=1:0.60
Default : Yes
Forced : No
Color primaries : BT.470-6 System B, BT.470-6 System G, BT.601-6 625, BT.1358 625, BT.1700 625 PAL, BT.1700 625 SECAM
Transfer characteristics : BT.709-5, BT.1361
Matrix coefficients : BT.601-6 525, BT.1358 525, BT.1700 NTSC, SMPTE 170M

Audio #1
ID : 2
Format : AC-3
Format/Info : Audio Coding 3
Mode extension : CM (complete main)
Codec ID : A_AC3
Duration : 1h 30mn
Bit rate mode : Constant
Bit rate : 256 Kbps
Channel(s) : 2 channels
Channel positions : Front: L R
Sampling rate : 48.0 KHz
Bit depth : 16 bits
Compression mode : Lossy
Delay relative to video : 1mn 5s
Stream size : 165 MiB (15%)
Title : Stereo
Language : Italian
Default : Yes
Forced : No

Audio #2
ID : 3
Format : AC-3
Format/Info : Audio Coding 3
Mode extension : CM (complete main)
Codec ID : A_AC3
Duration : 1h 30mn
Bit rate mode : Constant
Bit rate : 192 Kbps
Channel(s) : 2 channels
Channel positions : Front: L R
Sampling rate : 48.0 KHz
Bit depth : 16 bits
Compression mode : Lossy
Delay relative to video : 1mn 5s
Stream size : 124 MiB (11%)
Title : Stereo
Language : Japanese
Default : No
Forced : No

Text
ID : 4
Format : VobSub
Codec ID : S_VOBSUB
Codec ID/Info : The same subtitle format used on DVDs
Language : Italian
Default : No
Forced : No

Menu
00:00:00.000 : :Chapter 1
00:11:58.880 : :Chapter 2
00:13:35.040 : :Chapter 3
00:25:09.200 : :Chapter 4
00:30:02.280 : :Chapter 5
00:44:55.080 : :Chapter 6
01:00:09.120 : :Chapter 7
01:06:10.200 : :Chapter 8
01:11:58.840 : :Chapter 9
01:27:27.760 : :Chapter 10



[/spoiler]

Trackers

Refresh Leechers : Updated October 12, 2017

1. udp://tracker.coppersurfer.tk:6969/announce

2. udp://tracker.opentrackr.org:1337/announce

3. udp://tracker.leechers-paradise.org:6969/announce

4. udp://9.rarbg.com:2710/announce

5. udp://9.rarbg.to:2710/announce

6. udp://9.rarbg.me:2710/announce

7. udp://glotorrents.pw:6969/announce

8. udp://tracker.openbittorrent.com:80/announce

9. udp://tracker.pubt.net:2710/announce

10. udp://tracker.ilibr.org:6969/announce

11. udp://tracker.ilibr.org:80/announce

12. udp://zer0day.to:1337/announce

13. udp://tracker.zer0day.to:1337/announce

14. udp://p4p.arenabg.com:1337/announce

15. udp://p4p.arenabg.ch:1337/announce

16. udp://explodie.org:6969/announce

17. udp://eddie4.nl:6969/announce

Comments

You must log in to add a comment.

Embed Code

Sharing Widget