Your IP Address is . Location is Your ISP and Government can track your torrent activity! Hide your IP with a VPN!

Feed The Devil 2015 720p BluRay DD 5 1 x264

DOWNLOAD TORRENT DOWNLOAD DOWNLOAD ANONYMOUS

Posted by moviefreak •547 on October 12, 2017 in Movies » Horror , verified torrent

Size: 1.15 GB , Seeds: 0 , Peers: 2 ( Updated December 15, 2017 - Refresh )

* Download via Magnet Link , * To download files you need a Bittorrent Client , * How to download torrents from Bit Torrent Scene?

Scrape History ( seeds + peers )

Internal Files

Feed The Devil 2015 720p BluRay DD 5.1 x264
Feed The Devil 2015 720p BluRay DD 5.1 x264.mkv   1.15 GB

Hash Code

5817d8f783e8bef96434a52f2e8f841046f7966a

Description

SCREENSHOT

General
Format : Matroska
Format version : Version 4 / Version 2
File size : 1.15 GiB
Duration : 1 h 34 min
Overall bit rate : 1 736 kb/s

Video
ID : 1
Format : AVC
Format/Info : Advanced Video Codec
Format profile : High@L3.1
Format settings : CABAC / 4 Ref Frames
Format settings, CABAC : Yes
Format settings, RefFrames : 4 frames
Codec ID : V_MPEG4/ISO/AVC
Duration : 1 h 34 min
Bit rate : 1 500 kb/s
Width : 1 280 pixels
Height : 544 pixels
Display aspect ratio : 2.35:1
Frame rate mode : Constant
Frame rate : 24.000 FPS
Color space : YUV
Chroma subsampling : 4:2:0
Bit depth : 8 bits
Scan type : Progressive
Bits/(Pixel*Frame) : 0.090
Stream size : 1 003 MiB (85%)
Writing library : x264 core 148 r2643 5c65704
Default : Yes
Forced : No

Audio
ID : 2
Format : AC-3
Format/Info : Audio Coding 3
Format settings, Endianness : Big
Codec ID : A_AC3
Duration : 1 h 34 min
Bit rate mode : Constant
Bit rate : 256 kb/s
Channel(s) : 6 channels
Channel positions : Front: L C R, Side: L R, LFE
Sampling rate : 48.0 kHz
Frame rate : 31.250 FPS (1536 SPF)
Bit depth : 16 bits
Compression mode : Lossy
Stream size : 174 MiB (15%)
Service kind : Complete Main
Default : Yes
Forced : No


SCREENSHOT
SCREENSHOT
SCREENSHOT
SCREENSHOT

Trackers

Refresh Leechers : Updated December 15, 2017

1. http://ipv4.tracker.harry.lu/announce

2. http://ipv4.tracker.harry.lu:80/announce

3. udp://tracker.pirateparty.gr:6969/announce

4. http://tracker.devil-torrents.pl:80/announce

5. http://tracker.devil-torrents.pl/announce

6. http://open.kickasstracker.com/announce

7. https://open.kickasstracker.com:443/announce

8. udp://p4p.arenabg.com:1337/announce

9. udp://9.rarbg.me:2770/announce

10. udp://9.rarbg.com:2740/announce

11. udp://9.rarbg.to:2750/announce

12. udp://tracker.coppersurfer.tk:6969/announce

13. udp://tracker.leechers-paradise.org:6969/announce

14. udp://tracker.zer0day.to:1337/announce

15. http://tracker.devil-torrents.pl/announce

Comments

You must log in to add a comment.

Embed Code

Sharing Widget

Top Movies ( auto generated report )

FILENAME SIZE SEEDS PEERS ADDED UPD
[i] The Mountain Between Us (2017) [720p] [YTS AG] 816.25 MB 5646 2920 2 days 20 hours
[i] l-experience-interdite-flatliners-french-dvdrip-2017.torrent 700.65 MB 5171 851 1 day 14 hours
[i] The Mountain Between Us (2017) [1080p] [YTS AG] 1.7 GB 3700 2235 2 days 1 day
[i] Flatliners (2017) [720p] [YTS AG] 807.91 MB 3451 2428 2 days 1 day
[i] Stronger (2017) [720p] [YTS AG] 865.1 MB 1528 329 6 days 18 hours
[i] Flatliners (2017) [1080p] [YTS AG] 1.67 GB 2824 1770 2 days 1 day
[i] The LEGO Ninjago Movie (2017) [720p] [YTS AG] 747.68 MB 1027 160 6 days 18 hours
[i] The.Snowman.2017.HC.WEBRip.x264-STUTTERSHIT[rarbg] 1.02 GB 1791 791 5 days 4 days
[i] Victoria & Abdul (2017) [720p] [YTS AG] 812.01 MB 1305 334 6 days 18 hours
[i] Victoria & Abdul (2017) [1080p] [YTS AG] 1.69 GB 1139 269 6 days 18 hours