Feed The Devil 2015 720p BluRay DD 5 1 x264

DOWNLOAD TORRENT DOWNLOAD DOWNLOAD ANONYMOUS

Posted by moviefreak •246 on October 12, 2017 in Movies » Horror , verified torrent

Size: 1.15 GB , Seeds: 1 , Peers: 3 ( Updated October 18, 2017 - Refresh )

* Download via Magnet Link , * To download files you need a Bittorrent Client , * How to download torrents from Bit Torrent Scene?

Scrape History ( seeds + peers )

Internal Files

Feed The Devil 2015 720p BluRay DD 5.1 x264
Feed The Devil 2015 720p BluRay DD 5.1 x264.mkv   1.15 GB

Hash Code

5817d8f783e8bef96434a52f2e8f841046f7966a

Description

SCREENSHOT

General
Format : Matroska
Format version : Version 4 / Version 2
File size : 1.15 GiB
Duration : 1 h 34 min
Overall bit rate : 1 736 kb/s

Video
ID : 1
Format : AVC
Format/Info : Advanced Video Codec
Format profile : High@L3.1
Format settings : CABAC / 4 Ref Frames
Format settings, CABAC : Yes
Format settings, RefFrames : 4 frames
Codec ID : V_MPEG4/ISO/AVC
Duration : 1 h 34 min
Bit rate : 1 500 kb/s
Width : 1 280 pixels
Height : 544 pixels
Display aspect ratio : 2.35:1
Frame rate mode : Constant
Frame rate : 24.000 FPS
Color space : YUV
Chroma subsampling : 4:2:0
Bit depth : 8 bits
Scan type : Progressive
Bits/(Pixel*Frame) : 0.090
Stream size : 1 003 MiB (85%)
Writing library : x264 core 148 r2643 5c65704
Default : Yes
Forced : No

Audio
ID : 2
Format : AC-3
Format/Info : Audio Coding 3
Format settings, Endianness : Big
Codec ID : A_AC3
Duration : 1 h 34 min
Bit rate mode : Constant
Bit rate : 256 kb/s
Channel(s) : 6 channels
Channel positions : Front: L C R, Side: L R, LFE
Sampling rate : 48.0 kHz
Frame rate : 31.250 FPS (1536 SPF)
Bit depth : 16 bits
Compression mode : Lossy
Stream size : 174 MiB (15%)
Service kind : Complete Main
Default : Yes
Forced : No


SCREENSHOT
SCREENSHOT
SCREENSHOT
SCREENSHOT

Trackers

Refresh Leechers : Updated October 18, 2017

1. http://ipv4.tracker.harry.lu/announce

2. http://ipv4.tracker.harry.lu:80/announce

3. udp://tracker.pirateparty.gr:6969/announce

4. http://tracker.devil-torrents.pl:80/announce

5. http://tracker.devil-torrents.pl/announce

6. http://open.kickasstracker.com/announce

7. https://open.kickasstracker.com:443/announce

8. udp://p4p.arenabg.com:1337/announce

9. udp://9.rarbg.me:2770/announce

10. udp://9.rarbg.com:2740/announce

11. udp://9.rarbg.to:2750/announce

12. udp://tracker.coppersurfer.tk:6969/announce

13. udp://tracker.leechers-paradise.org:6969/announce

14. udp://tracker.zer0day.to:1337/announce

15. http://tracker.devil-torrents.pl/announce

Comments

You must log in to add a comment.

Embed Code

Sharing Widget

Top Movies ( auto generated report )

FILENAME SIZE SEEDS PEERS ADDED UPD
[i] A Family Man (2016) [720p] [YTS AG] 807.25 MB 1747 564 4 days 17 hours
[i] A Family Man (2016) [1080p] [YTS AG] 1.68 GB 1337 386 4 days 17 hours
[i] Pressure (2015) [720p] [YTS AG] 678.41 MB 1019 351 4 days 1 day
[i] Viceroy's House (2017) [720p] [YTS AG] 782.15 MB 929 332 4 days 1 day
[i] Annabelle 2 Creation 2017 BRScreener Spanish [Zonatorrent org] avi 1.81 GB 905 141 3 days 22 hours
[i] Viceroy's House (2017) [1080p] [YTS AG] 1.62 GB 854 321 4 days 2 days
[i] Hâmonî (2015) [720p] [YTS AG] 884.87 MB 770 277 5 days 2 days
[i] OtherLife 2017 HDRip XViD AC3-juggs 1.24 GB 750 416 4 days 2 days
[i] Pressure (2015) [1080p] [YTS AG] 1.4 GB 746 185 3 days 22 hours
[i] Open Water 3 Cage Dive (2017) [720p] [YTS AG] 589.39 MB 753 785 22 hours 20 hours