Your IP Address is . Location is Your ISP and Government can track your torrent activity! Hide your IP with a VPN!

Corruption.1968.US.Version.BDRip.x264-REGRET

DOWNLOAD TORRENT DOWNLOAD DOWNLOAD ANONYMOUS

Posted on October 13, 2017 in Movies » Misc , verified torrent

Size: 914 MB , Seeds: 0 , Peers: 0 ( Updated December 16, 2017 - Refresh )

Could not find any peer statistics from any torrent tracker.
This does not mean the torrent is dead.

* Download via Magnet Link , * To download files you need a Bittorrent Client , * How to download torrents from Bit Torrent Scene?

Scrape History ( seeds + peers )

Internal Files

Corruption.1968.US.Version.BDRip.x264-REGRET
Corruption.1968.US.Version.BDRip.x264-REGRET.mkv   905.3 MB
corruption.1968.us.version.bdrip.x264-regret.nfo   1.03 KB

Hash Code

8238af38bde3bc8c16a751c6b87dd3b71f61da72

Description

Corruption.1968.US.Version.BDRip.x264-REGRET

ImDb: http://www.imdb.com/title/tt0061520

SCREENSHOT

Complete name : Corruption.1968.US.Version.BDRip.x264-REGRET.mkv
Format : Matroska
Format version : Version 4 / Version 2
File size : 905 MiB
Duration : 1 h 31 min
Overall bit rate : 1 385 kb/s
Encoded date : UTC 2017-10-01 21:07:44
Writing application : mkvmerge v15.0.0 ('Duel with the Devil') 64-bit
Writing library : libebml v1.3.5 + libmatroska v1.4.5

Video
ID : 1
Format : AVC
Format/Info : Advanced Video Codec
Format profile : [email protected]
Format settings, CABAC : Yes
Format settings, ReFrames : 5 frames
Codec ID : V_MPEG4/ISO/AVC
Duration : 1 h 31 min
Bit rate : 1 305 kb/s
Width : 720 pixels
Height : 390 pixels
Display aspect ratio : 1.85:1
Frame rate mode : Constant
Frame rate : 23.976 (24000/1001) FPS
Color space : YUV
Chroma subsampling : 4:2:0
Bit depth : 8 bits
Scan type : Progressive
Bits/(Pixel*Frame) : 0.194
Stream size : 853 MiB (94%)
Writing library : x264 core 152 r2851 ba24899
Encoding settings : cabac=1 / ref=5 / deblock=1:-3:-3 / analyse=0x3:0x113 / me=umh / subme=8 / psy=1 / psy_rd=1.00:0.25 / mixed_ref=1 / me_range=24 / chroma_me=1 / trellis=2 / 8x8dct=1 / cqm=0 / deadzone=21,11 / fast_pskip=1 / chroma_qp_offset=-4 / threads=12 / lookahead_threads=2 / sliced_threads=0 / nr=0 / decimate=1 / interlaced=0 / bluray_compat=0 / constrained_intra=0 / bframes=3 / b_pyramid=2 / b_adapt=1 / b_bias=0 / direct=3 / weightb=1 / open_gop=0 / weightp=2 / keyint=240 / keyint_min=24 / scenecut=40 / intra_refresh=0 / rc_lookahead=50 / rc=crf / mbtree=1 / crf=19.0 / qcomp=0.60 / qpmin=0 / qpmax=69 / qpstep=4 / ip_ratio=1.40 / aq=1:0.75
Default : Yes
Forced : No
Color range : Limited
Matrix coefficients : BT.709

Audio
ID : 2
Format : AAC
Format/Info : Advanced Audio Codec
Format profile : LC
Codec ID : A_AAC
Duration : 1 h 31 min
Bit rate : 78.1 kb/s
Channel(s) : 1 channel
Channel positions : Front: C
Sampling rate : 48.0 kHz
Frame rate : 46.875 FPS (1024 spf)
Compression mode : Lossy
Delay relative to video : 9 ms
Stream size : 51.0 MiB (6%)
Language : English
Default : Yes
Forced : No

Menu
00:00:00.000 : en:00:00:00.000
00:03:39.219 : en:00:03:39.219
00:08:56.286 : en:00:08:56.286
00:10:51.818 : en:00:10:51.818
00:12:28.831 : en:00:12:28.831
00:14:46.928 : en:00:14:46.928
00:17:06.859 : en:00:17:06.859
00:18:47.877 : en:00:18:47.877
00:21:20.696 : en:00:21:20.696
00:26:55.948 : en:00:26:55.948
00:29:18.173 : en:00:29:18.173
00:32:35.537 : en:00:32:35.537
00:33:09.321 : en:00:33:09.321
00:37:41.676 : en:00:37:41.676
00:39:02.715 : en:00:39:02.715
00:41:06.381 : en:00:41:06.381
00:45:58.172 : en:00:45:58.172
00:50:11.342 : en:00:50:11.342
00:53:39.633 : en:00:53:39.633
00:56:40.898 : en:00:56:40.898
01:00:15.695 : en:01:00:15.695
01:05:19.749 : en:01:05:19.749
01:07:48.648 : en:01:07:48.648
01:12:23.005 : en:01:12:23.005
01:13:25.401 : en:01:13:25.401
01:17:02.034 : en:01:17:02.034
01:19:44.279 : en:01:19:44.279
01:22:43.542 : en:01:22:43.542
01:24:45.080 : en:01:24:45.080
01:25:41.011 : en:01:25:41.011
01:29:07.342 : en:01:29:07.342
01:30:31.676 : en:01:30:31.676

SCREENSHOT

SCREENSHOT

Click To View Screenshot

Click To View Screenshot

Click To View Screenshot

Torrent location

https://www.1337x.to/torrent/2513260/Corruption-1968-US-Version-BDRip-x264-REGRET/

Trackers

Refresh Leechers : Updated December 16, 2017

1. http://bigfoot1942.sektori.org:6969/announce

2. http://tracker2.wasabii.com.tw:6969/announce

3. http://tracker.opentrackr.org/announce

4. http://announce.torrentsmd.com:6969/announce

5. http://tracker.trackerfix.com/announce

6. http://tracker.opentrackr.org/announce

7. udp://explodie.org:6969/announce

8. udp://mgtracker.org:6969/announce

9. udp://asnet.pw:2710/announce

10. udp://tracker.mgtracker.org:2710/announce

11. udp://tracker4.piratux.com:6969/announce

12. udp://tracker.trackerfix.com:80/announce

13. udp://tracker.pomf.se:80/announce

14. udp://tracker.x4w.co:6969/announce

15. udp://castradio.net:6969/announce

16. udp://ipv4.tracker.harry.lu:80/announce

17. udp://tracker.mg64.net:6881/announce

18. udp://tracker.sktorrent.net:6969/announce

19. udp://tracker.blackunicorn.xyz:6969/announce

20. udp://tracker.internetwarriors.net:1337/announce

21. udp://public.popcorn-tracker.org:6969/announce

22. udp://glotorrents.pw:6969/announce

23. udp://tracker.vanitycore.co:6969/announce

24. udp://tracker.trackerfix.com:80/announce

25. udp://p4p.arenabg.ch:1337/announce

26. udp://9.rarbg.me:2710/announce

27. udp://tracker.zer0day.to:1337/announce

28. udp://tracker.opentrackr.org:1337/announce

29. udp://tracker.pirateparty.gr:6969/announce

30. udp://9.rarbg.to:2710/announce

31. udp://eddie4.nl:6969/announce

32. udp://tracker.coppersurfer.tk:6969/announce

33. udp://tracker.leechers-paradise.org:6969/announce

34. udp://tracker.zer0day.to:1337/announce

35. udp://public.popcorn-tracker.org:6969/announce

36. udp://tracker.grepler.com:6969/announce

37. udp://ipv4.tracker.harry.lu:80/announce

38. udp://9.rarbg.to:2710/announce

39. udp://9.rarbg.me:2710/announce

40. udp://p4p.arenabg.com:1337/announce

41. udp://p4p.arenabg.ch:1337/announce

42. udp://tracker.opentrackr.org:1337/announce

43. udp://tracker.leechers-paradise.org:6969/announce

44. udp://eddie4.nl:6969/announce

45. udp://shadowshq.yi.org:6969/announce

46. udp://tracker.pirateparty.gr:6969/announce

47. udp://tracker.coppersurfer.tk:6969/announce

Comments

You must log in to add a comment.

Embed Code

Sharing Widget

Related torrents

FILENAME SIZE SEEDS PEERS ADDED UPD
[i] Corruption.1968.International.Version.1080p.Bluray.DTS.x264-GCJM 7.04 GB 0 2 4 years 5 months
[i] Corruption.1968.International.Version.720p.Bluray.DTS.x264-GCJM 3.87 GB 0 0 4 years 5 months
[i] Corruption (1968) International Version 720p BrRip x264 Pimp4003 (PimpRG) 813.19 MB 0 1 4 years 5 months
[i] Corruption.1968.International.Version.BDRip.x264-REGRET 914 MB 0 0 2 months 1 day

Top Movies ( auto generated report )

FILENAME SIZE SEEDS PEERS ADDED UPD
[i] The Mountain Between Us (2017) [720p] [YTS AG] 816.25 MB 5646 2920 2 days 20 hours
[i] l-experience-interdite-flatliners-french-dvdrip-2017.torrent 700.65 MB 5171 851 1 day 15 hours
[i] The Mountain Between Us (2017) [1080p] [YTS AG] 1.7 GB 3700 2235 2 days 1 day
[i] Flatliners (2017) [720p] [YTS AG] 807.91 MB 3451 2428 2 days 1 day
[i] Stronger (2017) [720p] [YTS AG] 865.1 MB 1528 329 6 days 18 hours
[i] Flatliners (2017) [1080p] [YTS AG] 1.67 GB 2824 1770 2 days 1 day
[i] The LEGO Ninjago Movie (2017) [720p] [YTS AG] 747.68 MB 1027 160 6 days 18 hours
[i] The.Snowman.2017.HC.WEBRip.x264-STUTTERSHIT[rarbg] 1.02 GB 1791 791 5 days 4 days
[i] Victoria & Abdul (2017) [720p] [YTS AG] 812.01 MB 1305 334 6 days 18 hours
[i] Victoria & Abdul (2017) [1080p] [YTS AG] 1.69 GB 1139 269 6 days 18 hours