Corruption.1968.International.Version.BDRip.x264-REGRET

DOWNLOAD TORRENT DOWNLOAD DOWNLOAD ANONYMOUS

Posted on October 13, 2017 in Movies » Misc , verified torrent

Size: 914 MB , Seeds: 0 , Peers: 0 ( Updated October 19, 2017 - Refresh )

Could not find any peer statistics from any torrent tracker.
This does not mean the torrent is dead.

* Download via Magnet Link , * To download files you need a Bittorrent Client , * How to download torrents from Bit Torrent Scene?

Scrape History ( seeds + peers )

Internal Files

Corruption.1968.International.Version.BDRip.x264-REGRET
Corruption.1968.International.Version.BDRip.x264-REGRET.mkv   908.72 MB
corruption.1968.international.version.bdrip.x264-regret.nfo   1.04 KB

Hash Code

228f9cb10c3fdfdc31b3b20509208c952e93221d

Description

Corruption.1968.International.Version.BDRip.x264-REGRET

ImDb: http://www.imdb.com/title/tt0061520

SCREENSHOT

Complete name : Corruption.1968.International.Version.BDRip.x264-REGRET.mkv
Format : Matroska
Format version : Version 4 / Version 2
File size : 909 MiB
Duration : 1 h 30 min
Overall bit rate : 1 401 kb/s
Encoded date : UTC 2017-10-01 21:07:49
Writing application : mkvmerge v15.0.0 ('Duel with the Devil') 64-bit
Writing library : libebml v1.3.5 + libmatroska v1.4.5

Video
ID : 1
Format : AVC
Format/Info : Advanced Video Codec
Format profile : [email protected]
Format settings, CABAC : Yes
Format settings, ReFrames : 5 frames
Codec ID : V_MPEG4/ISO/AVC
Duration : 1 h 30 min
Bit rate : 1 321 kb/s
Width : 720 pixels
Height : 390 pixels
Display aspect ratio : 1.85:1
Frame rate mode : Constant
Frame rate : 23.976 (24000/1001) FPS
Color space : YUV
Chroma subsampling : 4:2:0
Bit depth : 8 bits
Scan type : Progressive
Bits/(Pixel*Frame) : 0.196
Stream size : 857 MiB (94%)
Writing library : x264 core 152 r2851 ba24899
Encoding settings : cabac=1 / ref=5 / deblock=1:-3:-3 / analyse=0x3:0x113 / me=umh / subme=8 / psy=1 / psy_rd=1.00:0.25 / mixed_ref=1 / me_range=24 / chroma_me=1 / trellis=2 / 8x8dct=1 / cqm=0 / deadzone=21,11 / fast_pskip=1 / chroma_qp_offset=-4 / threads=12 / lookahead_threads=2 / sliced_threads=0 / nr=0 / decimate=1 / interlaced=0 / bluray_compat=0 / constrained_intra=0 / bframes=3 / b_pyramid=2 / b_adapt=1 / b_bias=0 / direct=3 / weightb=1 / open_gop=0 / weightp=2 / keyint=240 / keyint_min=24 / scenecut=40 / intra_refresh=0 / rc_lookahead=50 / rc=crf / mbtree=1 / crf=19.0 / qcomp=0.60 / qpmin=0 / qpmax=69 / qpstep=4 / ip_ratio=1.40 / aq=1:0.75
Default : Yes
Forced : No
Color range : Limited
Matrix coefficients : BT.709

Audio
ID : 2
Format : AAC
Format/Info : Advanced Audio Codec
Format profile : LC
Codec ID : A_AAC
Duration : 1 h 30 min
Bit rate : 78.0 kb/s
Channel(s) : 1 channel
Channel positions : Front: C
Sampling rate : 48.0 kHz
Frame rate : 46.875 FPS (1024 spf)
Compression mode : Lossy
Delay relative to video : 9 ms
Stream size : 50.6 MiB (6%)
Language : English
Default : Yes
Forced : No

Menu
00:00:00.000 : en:00:00:00.000
00:03:39.219 : en:00:03:39.219
00:08:56.286 : en:00:08:56.286
00:10:51.818 : en:00:10:51.818
00:12:28.831 : en:00:12:28.831
00:14:46.969 : en:00:14:46.969
00:17:06.859 : en:00:17:06.859
00:18:47.918 : en:00:18:47.918
00:21:20.696 : en:00:21:20.696
00:26:55.948 : en:00:26:55.948
00:29:18.173 : en:00:29:18.173
00:32:35.579 : en:00:32:35.579
00:33:09.321 : en:00:33:09.321
00:36:57.674 : en:00:36:57.674
00:38:18.671 : en:00:38:18.671
00:40:22.420 : en:00:40:22.420
00:45:14.212 : en:00:45:14.212
00:49:27.381 : en:00:49:27.381
00:52:55.631 : en:00:52:55.631
00:55:56.979 : en:00:55:56.979
00:59:31.735 : en:00:59:31.735
01:04:35.789 : en:01:04:35.789
01:07:04.687 : en:01:07:04.687
01:11:39.045 : en:01:11:39.045
01:12:41.440 : en:01:12:41.440
01:16:18.157 : en:01:16:18.157
01:19:00.486 : en:01:19:00.486
01:21:59.665 : en:01:21:59.665
01:24:01.119 : en:01:24:01.119
01:24:57.092 : en:01:24:57.092
01:28:23.298 : en:01:28:23.298
01:29:47.883 : en:01:29:47.883

SCREENSHOT

SCREENSHOT

Click To View Screenshot

Click To View Screenshot

Click To View Screenshot

Torrent location

https://www.1337x.to/torrent/2513258/Corruption-1968-International-Version-BDRip-x264-REGRET/

Trackers

Refresh Leechers : Updated October 19, 2017

1. http://bigfoot1942.sektori.org:6969/announce

2. http://tracker2.wasabii.com.tw:6969/announce

3. http://tracker.opentrackr.org/announce

4. http://announce.torrentsmd.com:6969/announce

5. http://tracker.trackerfix.com/announce

6. http://tracker.opentrackr.org/announce

7. udp://explodie.org:6969/announce

8. udp://mgtracker.org:6969/announce

9. udp://asnet.pw:2710/announce

10. udp://tracker.mgtracker.org:2710/announce

11. udp://tracker4.piratux.com:6969/announce

12. udp://tracker.trackerfix.com:80/announce

13. udp://tracker.pomf.se:80/announce

14. udp://tracker.x4w.co:6969/announce

15. udp://castradio.net:6969/announce

16. udp://ipv4.tracker.harry.lu:80/announce

17. udp://tracker.mg64.net:6881/announce

18. udp://tracker.sktorrent.net:6969/announce

19. udp://tracker.blackunicorn.xyz:6969/announce

20. udp://tracker.internetwarriors.net:1337/announce

21. udp://public.popcorn-tracker.org:6969/announce

22. udp://glotorrents.pw:6969/announce

23. udp://tracker.vanitycore.co:6969/announce

24. udp://tracker.trackerfix.com:80/announce

25. udp://p4p.arenabg.ch:1337/announce

26. udp://9.rarbg.me:2710/announce

27. udp://tracker.zer0day.to:1337/announce

28. udp://tracker.opentrackr.org:1337/announce

29. udp://tracker.pirateparty.gr:6969/announce

30. udp://9.rarbg.to:2710/announce

31. udp://eddie4.nl:6969/announce

32. udp://tracker.coppersurfer.tk:6969/announce

33. udp://tracker.leechers-paradise.org:6969/announce

34. udp://tracker.zer0day.to:1337/announce

35. udp://public.popcorn-tracker.org:6969/announce

36. udp://tracker.grepler.com:6969/announce

37. udp://ipv4.tracker.harry.lu:80/announce

38. udp://9.rarbg.to:2710/announce

39. udp://9.rarbg.me:2710/announce

40. udp://p4p.arenabg.com:1337/announce

41. udp://p4p.arenabg.ch:1337/announce

42. udp://tracker.opentrackr.org:1337/announce

43. udp://tracker.leechers-paradise.org:6969/announce

44. udp://eddie4.nl:6969/announce

45. udp://shadowshq.yi.org:6969/announce

46. udp://tracker.pirateparty.gr:6969/announce

47. udp://tracker.coppersurfer.tk:6969/announce

Comments

You must log in to add a comment.

Embed Code

Sharing Widget

Related torrents

FILENAME SIZE SEEDS PEERS ADDED UPD
[i] Corruption.1968.International.Version.1080p.Bluray.DTS.x264-GCJM 7.04 GB 0 2 3 years 3 months
[i] Corruption.1968.International.Version.720p.Bluray.DTS.x264-GCJM 3.87 GB 0 0 3 years 3 months
[i] Corruption (1968) International Version 720p BrRip x264 Pimp4003 (PimpRG) 813.19 MB 0 1 3 years 3 months

Top Movies ( auto generated report )

FILENAME SIZE SEEDS PEERS ADDED UPD
[i] A Family Man (2016) [720p] [YTS AG] 807.25 MB 1747 564 4 days 16 hours
[i] A Family Man (2016) [1080p] [YTS AG] 1.68 GB 1337 386 4 days 16 hours
[i] Pressure (2015) [720p] [YTS AG] 678.41 MB 1019 351 4 days 1 day
[i] Viceroy's House (2017) [720p] [YTS AG] 782.15 MB 929 332 4 days 1 day
[i] Annabelle 2 Creation 2017 BRScreener Spanish [Zonatorrent org] avi 1.81 GB 905 141 3 days 22 hours
[i] Viceroy's House (2017) [1080p] [YTS AG] 1.62 GB 854 321 4 days 2 days
[i] Hâmonî (2015) [720p] [YTS AG] 884.87 MB 770 277 5 days 2 days
[i] OtherLife 2017 HDRip XViD AC3-juggs 1.24 GB 750 416 4 days 2 days
[i] Pressure (2015) [1080p] [YTS AG] 1.4 GB 746 185 3 days 22 hours
[i] Open Water 3 Cage Dive (2017) [720p] [YTS AG] 589.39 MB 753 785 22 hours 20 hours