Black Panther 2018 720p TS x264 AAC

Posted by moviefreak •1686 on March 11, 2018 in Movies » Action , verified torrent

Size: 1.15 GB , Seeds: 55 , Peers: 4 ( Updated June 18, 2018 - Refresh )

* Download via Magnet Link , * To download files you need a Bittorrent Client , * How to download torrents from Bit Torrent Scene?

Scrape History ( seeds + peers )

Internal Files

Black Panther 2018 720p TS x264 AAC
Black Panther 2018 720p TS x264 AAC.mkv   1.15 GB

Hash Code

5a57ed49948a2a97c5c7901c722631f4a42e48f4

Description


SCREENSHOT


General
Format : Matroska
Format version : Version 4 / Version 2
File size : 1.15 GiB
Duration : 2 h 3 min
Overall bit rate : 1 326 kb/s

Video
ID : 1
Format : AVC
Format/Info : Advanced Video Codec
Format profile : High@L4.1
Format settings : CABAC / 4 Ref Frames
Format settings, CABAC : Yes
Format settings, RefFrames : 4 frames
Codec ID : V_MPEG4/ISO/AVC
Duration : 2 h 3 min
Bit rate : 1 200 kb/s
Width : 1 280 pixels
Height : 456 pixels
Display aspect ratio : 2.807
Frame rate mode : Constant
Frame rate : 23.976 (24000/1001) FPS
Color space : YUV
Chroma subsampling : 4:2:0
Bit depth : 8 bits
Scan type : Progressive
Bits/(Pixel*Frame) : 0.086
Stream size : 1.04 GiB (90%)
Writing library : x264 core 148 r2708 86b7198
Default : Yes
Forced : No

Audio
ID : 2
Format : AAC
Format/Info : Advanced Audio Codec
Format profile : LC
Codec ID : A_AAC-2
Duration : 2 h 3 min
Bit rate : 128 kb/s
Channel(s) : 2 channels
Channel positions : Front: L R
Sampling rate : 44.1 kHz
Frame rate : 43.066 FPS (1024 SPF)
Compression mode : Lossy
Stream size : 113 MiB (10%)
Language : English
Default : Yes
Forced : No




https://pichub.site/image/flXjk
https://pichub.site/image/fl9D9
https://pichub.site/image/fl3xv
https://pichub.site/image/flZTd
https://pichub.site/image/flHmu

Trackers

Refresh Leechers : Updated June 18, 2018

1. udp://tracker.pirateparty.gr:6969/announce

2. udp://tracker.opentrackr.org:1337/announce

3. http://tracker.opentrackr.org/announce

4. udp://tracker.vanitycore.co:6969/announce

5. udp://public.popcorn-tracker.org:6969/announce

6. udp://9.rarbg.to:2710/announce

7. udp://9.rarbg.me:2710/announce

8. udp://9.rarbg.com:2770/announce

9. udp://inferno.demonoid.pw:3391/announce

10. udp://tracker.internetwarriors.net:1337/announce

11. udp://ipv4.tracker.harry.lu:80/announce

12. udp://p4p.arenabg.ch:1337/announce

13. http://tracker.vanitycore.co:6969/announce

14. http://public.popcorn-tracker.org:6969/announce

15. udp://tracker.zer0day.to:1337/announce

Comments

You must log in to add a comment.

Embed Code

Sharing Widget

Related torrents

FILENAME SIZE SEEDS PEERS ADDED UPD
[i] Black Panther (2018) 720p HDTS 999MB - MkvCage 1011.3 MB 587 8 3 months 21 hours
[i] Black Panther (2018) 720p HC HDTC 999MB - MkvCage 1002.3 MB 397 21 2 months 4 days
[i] downloadhub in Black Panther (2018) 720p BluRay x264 [Dual-Audio][Hindi 5 1 - English 5 1] ESubs - Downloadhub
posted by downloadhub in Movies - Action
1.29 GB 131 45 2 weeks 22 hours
[i] Black Panther (2018) 720p HDTS 999MB - MkvCage 1 GB 121 14 2 months 2 weeks
[i] Black Panther 2018 720P New HDTS-X264-MP3-Zi$t 1.68 GB 100 22 3 months 2 weeks
[i] Black Panther (2018).720p.H264.italian.Ac3-5.1.English.Ac3.sub.ita.eng.MIRCrew
posted by robbyrs3 in Movies - Sci-fi
2.38 GB 100 23 3 weeks 1 week
[i] Black Panther 2018 720p BluRay x264 Dual Audio [Hindi (Cleaned) - English 2 0] ESub [MW]
posted by moviefreak in Movies - Action
1.33 GB 55 32 1 month 2 weeks
[i] Black Panther (2018) English BluRay - 720p - x264 - AAC - 1GB - ESub 1.03 GB 36 15 1 month 2 weeks
[i] Czarna Pantera - Black Panther (2018) [720P] [HDTS] [H264] AC3-E1973] [NAPISY PL]
posted by PROAC in Movies - Sci-fi
1.35 GB 30 5 1 month 3 weeks
[i] Black Panther 2018 720p HD-TS Hindi Dubbed x264 AAC
posted by moviefreak in Movies - Misc
1.31 GB 28 8 4 months 3 weeks

Top Movies ( auto generated report )

FILENAME SIZE SEEDS PEERS ADDED UPD
[i] Rampage (2018) [WEBRip] [720p] [YTS AM] 924.3 MB 12877 8865 5 days 1 day
[i] Rampage (2018) [WEBRip] [1080p] [YTS AM] 1.73 GB 11810 9729 5 days 4 days
[i] Ready Player One (2018) [WEBRip] [1080p] [YTS AM] 2.24 GB 10162 5063 5 days 2 days
[i] Ready Player One (2018) [WEBRip] [720p] [YTS AM] 1.16 GB 9167 6479 5 days 4 days
[i] Life of the Party (2018) [WEBRip] [720p] [YTS AM] 886.77 MB 3245 2104 5 days 4 days
[i] Blockers (2018) [WEBRip] [720p] [YTS AM] 861.94 MB 3014 1665 3 days 1 day
[i] Isle of Dogs (2018) [WEBRip] [1080p] [YTS AM] 1.55 GB 2561 854 3 days 2 days
[i] Blockers (2018) [WEBRip] [1080p] [YTS AM] 1.62 GB 2549 1065 3 days 2 days
[i] The Death of Superman (2018) [WEBRip] [720p] [YTS AM] 690.36 MB 2300 1288 5 days 4 days
[i] Life of the Party (2018) [WEBRip] [1080p] [YTS AM] 1.67 GB 2148 1183 5 days 4 days