18+ RED SPARROW 2018 720p HC HDRip AC3 LLG

Posted by LifeLongg •970 on April 16, 2018 in Movies » Drama , verified torrent

Size: 1.12 GB , Seeds: 8 , Peers: 2 ( Updated June 19, 2018 - Refresh )

* Download via Magnet Link , * To download files you need a Bittorrent Client , * How to download torrents from Bit Torrent Scene?

Scrape History ( seeds + peers )

Internal Files

18+.RED.SPARROW.2018.720p.HC.HDRip.AC3.LLG
Sample.ts   27.43 MB
18+.RED.SPARROW.2018.720p.HC.HDRip.AC3.LLG.mp4   1.09 GB

Hash Code

d49e2bd0cd151245d46299f9992faae609589397

Description

SCREENSHOT

SCREENSHOT

******************************Thumbnail:**********************

SCREENSHOT

******************************Screenshots:********************

Screenshot 1

Screenshot 2

Screenshot 3

Screenshot 4

Screenshot 5

Screenshot 6

Screenshot 7

Screenshot 8

Screenshot 9

Screenshot 0

**************************************************************

Complete name : 18+.RED.SPARROW.2018.720p.HC.HDRip.AC3.LLG.mp4
Format : MPEG-4
Format profile : Base Media
Codec ID : isom (isom/iso2/avc1/mp41)
File size : 1.09 GiB
Duration : 2 h 15 min
Overall bit rate : 1 148 kb/s
Writing application : Lavf57.56.101

Video
ID : 1
Format : AVC
Format/Info : Advanced Video Codec
Format profile : High@L3.1
Format settings : CABAC / 4 Ref Frames
Format settings, CABAC : Yes
Format settings, RefFrames : 4 frames
Codec ID : avc1
Codec ID/Info : Advanced Video Coding
Duration : 2 h 15 min
Bit rate : 900 kb/s
Width : 1 280 pixels
Height : 720 pixels
Display aspect ratio : 2.40:1
Original display aspect ratio : 2.40:1
Frame rate mode : Constant
Frame rate : 29.970 (29970/1000) FPS
Color space : YUV
Chroma subsampling : 4:2:0
Bit depth : 8 bits
Scan type : Progressive
Bits/(Pixel*Frame) : 0.033
Stream size : 861 MiB (77%)

Audio
ID : 2
Format : AC-3
Format/Info : Audio Coding 3
Codec ID : ac-3
Duration : 2 h 15 min
Bit rate mode : Constant
Bit rate : 256 kb/s
Channel(s) : 2 channels
Channel positions : Front: L R
Sampling rate : 48.0 kHz
Frame rate : 31.250 FPS (1536 SPF)
Bit depth : 16 bits
Compression mode : Lossy
Stream size : 249 MiB (22%)
Language : English
Service kind : Complete Main
Default : Yes
Alternate group : 1

Trackers

Refresh Leechers : Updated June 19, 2018

1. udp://tracker.openbittorrent.com:80/announce

2. udp://tracker.opentrackr.org:1337/announce

3. UDP://TRACKER.LEECHERS-PARADISE.ORG:6969/ANNOUNCE

Comments

You must log in to add a comment.

Embed Code

Sharing Widget

Related torrents

FILENAME SIZE SEEDS PEERS ADDED UPD
[i] Red Sparrow (2018) [BluRay] [720p] [YTS AM] 1.17 GB 3076 626 2 months 4 days
[i] Red Sparrow (2018) [BluRay] [1080p] [YTS AM] 2.24 GB 2085 352 2 months 4 days
[i] Red.Sparrow.2018.HC.HDRip.XviD.AC3-EVO[EtMovies] 1.31 GB 1479 74 3 months 4 weeks
[i] Red Sparrow (2018) Jennifer Lawrence.720p.H264.italian.English.Ac3-5.1.sub.ita.eng.MIRCrew
posted by robbyrs3 in Movies - Thriller
2.73 GB 131 25 2 months 9 hours
[i] downloadhub in Red Sparrow (2018) 720p BluRay x264 [Dual-Audio][Hindi 5 1 - English 5 1] ESubs - Downloadhub
posted by downloadhub in Movies - Drama
1.31 GB 67 56 2 months 1 day
[i] Red Sparrow 2018 DTS ITA ENG 1080p BluRay x264-BLUWORLD mkv
posted by SPEEDY4572 in Movies - Thriller
12.49 GB 40 19 2 months 12 hours
[i] Red Sparrow 2018 720p BRRip x264 AAC-ETRG
posted by juggs in Movies - Thriller
986.65 MB 36 11 2 months 1 month
[i] Red Sparrow 2018 Bluray H264 Ita Eng Ac3 5 1 Subs RoomCrew mkv
posted by NickTnT in Series - Misc
2.02 GB 35 5 2 months 5 hours
[i] Red Sparrow 2018 iTALiAN BRRip XviD BLUWORLD
posted by SPEEDY4572 in Movies - Thriller
1.71 GB 26 4 2 months 12 hours
[i] Red Sparrow 2018 BRRip XViD AC3-ETRG
posted by juggs in Movies - Thriller
1.42 GB 24 11 2 months 5 days

Top Movies ( auto generated report )

FILENAME SIZE SEEDS PEERS ADDED UPD
[i] Overboard (2018) [WEBRip] [720p] [YTS AM] 950.69 MB 4797 1885 2 days 17 hours
[i] How It Ends (2018) [WEBRip] [720p] [YTS AM] 970.57 MB 3710 1804 2 days 15 hours
[i] Furious (2017) [BluRay] [720p] [YTS AM] 1018.36 MB 2730 859 2 days 2 hours
[i] Overboard (2018) [WEBRip] [1080p] [YTS AM] (1) 1.79 GB 2987 1164 2 days 1 day
[i] Siberia (2018) [WEBRip] [720p] [YTS AM] 891.58 MB 2776 1456 2 days 1 day
[i] How It Ends (2018) [WEBRip] [1080p] [YTS AM] 1.82 GB 2685 1386 2 days 1 day
[i] Furious (2017) [BluRay] [1080p] [YTS AM] 1.9 GB 2622 1258 2 days 1 day
[i] Siberia (2018) [WEBRip] [1080p] [YTS AM] 1.67 GB 1989 917 2 days 1 day
[i] Incredibles 2 2018 HDTC XViD AC3-ETRG 1.31 GB 1380 538 4 days 15 hours
[i] 7 Splinters in Time (2018) [WEBRip] [720p] [YTS AM] 653.09 MB 1218 446 2 days 1 day