[180715][18禁アニメ無修正][BOOTLEG] サグラレ堕メ THE ANIMATION 【UNCEN】Subbed

Posted by MadHentaiJAV •1868 on July 30, 2018 in Anime » Hentai , verified torrent

Size: 293.53 MB , Seeds: 36 , Peers: 5 ( Updated August 13, 2018 - Refresh )

* Download via Magnet Link , * To download files you need a Bittorrent Client , * How to download torrents from Bit Torrent Scene?

Scrape History ( seeds + peers )

Internal Files

[180715][18禁アニメ無修正][BOOTLEG] サグラレ堕メ THE ANIMATION 【UNCEN】 Subbed.mp4
[180715][18禁アニメ無修正][BOOTLEG] サグラレ堕メ THE ANIMATION 【UNCEN】 Subbed.mp4   293.53 MB

Hash Code

3245483d429c9fa515f70b4db06a1932328ab92c

Description

Uploading by : #NyaaLover

https://www.chaosimg.site/site/v/6935072#2346&6935072

https://www.chaosimg.site/site/v/6935072#2346&6935073

SCREENSHOT


Video
ID : 1
Format : AVC
Format/Info : Advanced Video Codec
Format profile : Main@L3.1
Format settings, CABAC : Yes
Format settings, ReFrames : 1 frame
Format settings, GOP : M=1, N=25
Codec ID : avc1
Codec ID/Info : Advanced Video Coding
Duration : 17mn 27s
Bit rate mode : Constant
Bit rate : 2 500 Kbps
Width : 1 280 pixels
Height : 720 pixels
Display aspect ratio : 16:9
Frame rate : 25.000 fps
Color space : YUV
Chroma subsampling : 4:2:0
Bit depth : 8 bits
Scan type : Progressive
Bits/(Pixel*Frame) : 0.109
Stream size : 271 MiB (92%)
Encoded date : UTC 2018-07-19 08:05:46
Tagged date : UTC 2018-07-19 08:05:46

Audio
ID : 2
Format : AAC
Format/Info : Advanced Audio Codec
Format profile : LC
Codec ID : 40
Duration : 17mn 27s
Bit rate mode : Variable
Bit rate : 178 Kbps
Maximum bit rate : 192 Kbps
Channel(s) : 2 channels
Channel positions : Front: L R
Sampling rate : 48.0 KHz
Compression mode : Lossy
Stream size : 22.3 MiB (8%)
Encoded date : UTC 2018-07-19 08:05:46
Tagged date : UTC 2018-07-19 08:05:46

Trackers

Refresh Leechers : Updated August 13, 2018

1. http://sukebei.tracker.wf:8888/announce

2. udp://open.stealth.si:80/announce

3. udp://tracker.pirateparty.gr:6969/announce

4. udp://eddie4.nl:6969/announce

5. udp://shadowshq.yi.org:6969/announce

6. udp://bt.firebit.co.uk:6969/announce

7. udp://tracker.internetwarriors.net:1337/announce

8. http://sukebei.tracker.wf:8888/announce

9. udp://tracker.coppersurfer.tk:6969/announce

10. http://anidex.moe:6969/announce

11. udp://tracker.coppersurfer.tk:80/announce

12. udp://bt.xxx-tracker.com:2710/announce

13. udp://open.stealth.si:80/announce

14. udp://tracker.opentrackr.org:1337/announce

15. udp://opentrackr.org:1337/announce

16. http://82.209.230.66/announce

Comments

You must log in to add a comment.

Embed Code

Sharing Widget